APB.S01E07.HDTV.x264-MVGEE

  • Category TV
  • Type HD
  • Language English
  • Total size 252.1 MB
  • Uploaded By xuka
  • Downloads 112
  • Last checked 2 days ago
  • Date uploaded 1 week ago
  • Seeders 12
  • Leechers 8

Infohash : BA45C9DD781987395A5DF1F19E261D095C0CD584

APB.S01E07.HDTV.x264-MVGEE

http://www.imdb.com/title/tt5542294/

After witnessing a violent crime, a tech billionaire purchases a troubled police precinct, rebooting it as a private police force.

Year: 2016-
MPA Rating: N/A
Genres: Crime, Drama
Runtime: 43min
Rating: 7.2
Creators: Matt Nix, David Slack
Stars: Justin Kirk, Natalie Martinez, Taylor Handley



Duration: 00:42:50.84, start: 0.000000, bitrate: 822 kb/s
Stream #0:0(und): Video: h264 (Constrained Baseline) (avc1 / 0x31637661), yuv420p, 720x404 [SAR 1:1 DAR 180:101], 687 kb/s, 25 fps, 25 tbr, 12800 tbn, 50 tbc Stream #0:1(und): Audio: aac (LC) (mp4a / 0x6134706D), 48000 Hz, stereo, fltp, 129 kb/s (default)

Files:

  • APB.S01E07.HDTV.x264-MVGEE.mp4 (252.1 MB)

There are currently no comments. Feel free to leave one :)

Code:

  • udp://tracker.openbittorrent.com:80/announce
  • udp://tracker.ilibr.org:80/announce
  • udp://tracker.pirateparty.gr:6969/announce
  • udp://tracker.ilibr.org:6969/announce
  • udp://tracker.coppersurfer.tk:80/announce
  • udp://tracker.coppersurfer.tk:6969/announce
  • udp://tracker.opentrackr.org:1337/announce
  • udp://tracker.leechers-paradise.org:6969/announce
  • udp://shadowshq.yi.org:6969/announce
  • udp://bt.firebit.co.uk:6969/announce
  • udp://tracker.zer0day.to:1337/announce
  • udp://public.popcorn-tracker.org:6969/announce
  • udp://tracker.tiny-vps.com:6969/announce
  • udp://ipv4.tracker.harry.lu:80/announce
  • udp://9.rarbg.me:2710/announce
  • udp://explodie.org:6969/announce
  • udp://p4p.arenabg.com:1337/announce
  • udp://tracker.internetwarriors.net:1337/announce
  • http://tracker.trackerfix.com:80/announce
  • udp://9.rarbg.to:2710/announce
  • udp://zer0day.to:1337/announce
  • udp://torrent.gresille.org:80/announce/announce
  • udp://p4p.arenabg.ch:1337/announce
  • udp://9.rarbg.me:2730/announce
  • udp://eddie4.nl:6969/announce