Jungle.Emperor.Leo.1997.1080p.BluRay.x264-W4F[PRiME]

  • Category Movies
  • Type Divx/Xvid
  • Language English
  • Total size 5.5 GB
  • Uploaded By showstopper
  • Downloads 10
  • Last checked 1 day ago
  • Date uploaded 1 week ago
  • Seeders 5
  • Leechers 26

Jungle Emperor Leo

AdventureAnimationComedyFamily

Tezuka Osamu's most famous work "Jungle Emperor Leo" has been made into an animated version a number of times. In this theater version, Tezuka Osamu was able for the first time to depict the theme that "All life is equal" through Leo's self-sacrifice.

Infohash : E03BC7CE017E4C489024AD23B375437C9B31BA1B


Jungle.Emperor.Leo.1997.1080p.BluRay.x264-W4F[PRiME]

ImDb: http://www.imdb.com/title/tt0119406



Complete name : Jungle.Emperor.Leo.1997.1080p.BluRay.x264-W4F[PRiME].mkv
Format : Matroska
Format version : Version 4 / Version 2
File size : 5.46 GiB
Duration : 1 h 39 min
Overall bit rate mode : Variable
Overall bit rate : 7 860 kb/s
Encoded date : UTC 2017-03-20 13:47:08
Writing application : mkvmerge v9.9.0 ('Pick Up') 64bit
Writing library : libebml v1.3.4 + libmatroska v1.4.5

Video
ID : 1
Format : AVC
Format/Info : Advanced Video Codec
Format profile : [email protected]
Format settings, CABAC : Yes
Format settings, ReFrames : 4 frames
Codec ID : V_MPEG4/ISO/AVC
Duration : 1 h 38 min
Bit rate : 6 087 kb/s
Width : 1 920 pixels
Height : 1 080 pixels
Display aspect ratio : 16:9
Frame rate mode : Constant
Frame rate : 23.976 (24000/1001) FPS
Color space : YUV
Chroma subsampling : 4:2:0
Bit depth : 8 bits
Scan type : Progressive
Bits/(Pixel*Frame) : 0.122
Stream size : 4.21 GiB (77%)
Writing library : x264 core 148 r2744 b97ae06
Encoding settings : cabac=1 / ref=4 / deblock=1:1:1 / analyse=0x3:0x113 / me=umh / subme=8 / psy=1 / psy_rd=0.40:0.00 / mixed_ref=1 / me_range=24 / chroma_me=1 / trellis=1 / 8x8dct=1 / cqm=0 / deadzone=21,11 / fast_pskip=1 / chroma_qp_offset=-2 / threads=30 / lookahead_threads=5 / sliced_threads=0 / nr=0 / decimate=1 / interlaced=0 / bluray_compat=0 / constrained_intra=0 / bframes=5 / b_pyramid=2 / b_adapt=1 / b_bias=0 / direct=3 / weightb=1 / open_gop=0 / weightp=2 / keyint=240 / keyint_min=24 / scenecut=40 / intra_refresh=0 / rc_lookahead=50 / rc=2pass / mbtree=1 / bitrate=6087 / ratetol=1.0 / qcomp=0.60 / qpmin=0 / qpmax=69 / qpstep=4 / cplxblur=20.0 / qblur=0.5 / ip_ratio=1.40 / aq=1:0.60
Default : Yes
Forced : No

Audio #1
ID : 2
Format : FLAC
Format/Info : Free Lossless Audio Codec
Codec ID : A_FLAC
Duration : 1 h 38 min
Bit rate mode : Variable
Bit rate : 1 422 kb/s
Channel(s) : 2 channels
Channel positions : Front: L R
Sampling rate : 48.0 kHz
Frame rate : 11.719 FPS (4096 spf)
Bit depth : 24 bits
Stream size : 1 006 MiB (18%)
Writing library : libFLAC 1.2.1 (UTC 2007-09-17)
Language : Japanese
Default : Yes
Forced : No

Audio #2
ID : 3
Format : FLAC
Format/Info : Free Lossless Audio Codec
Codec ID : A_FLAC
Duration : 1 h 39 min
Bit rate mode : Variable
Bit rate : 389 kb/s
Channel(s) : 2 channels
Channel positions : Front: L R
Sampling rate : 48.0 kHz
Frame rate : 11.719 FPS (4096 spf)
Bit depth : 16 bits
Stream size : 277 MiB (5%)
Writing library : libFLAC 1.2.1 (UTC 2007-09-17)
Language : English
Default : No
Forced : No

Text #1
ID : 4
Format : UTF-8
Codec ID : S_TEXT/UTF8
Codec ID/Info : UTF-8 Plain Text
Duration : 1 h 37 min
Bit rate : 35 b/s
Count of elements : 1030
Stream size : 25.1 KiB (0%)
Title : Full subs for Japanese audio
Language : English
Default : Yes
Forced : No

Text #2
ID : 5
Format : UTF-8
Codec ID : S_TEXT/UTF8
Codec ID/Info : UTF-8 Plain Text
Duration : 1 h 35 min
Bit rate : 1 b/s
Count of elements : 31
Stream size : 1.33 KiB (0%)
Title : Forced subs for English audio
Language : English
Default : No
Forced : No

Menu
00:00:00.000 : en:00:00:00.000
00:06:06.616 : en:00:06:06.616
00:19:16.781 : en:00:19:16.781
00:26:08.525 : en:00:26:08.525
00:36:09.042 : en:00:36:09.042
00:47:07.408 : en:00:47:07.408
00:56:35.684 : en:00:56:35.684
01:04:07.510 : en:01:04:07.510
01:15:44.081 : en:01:15:44.081
01:22:44.460 : en:01:22:44.460
01:32:00.598 : en:01:32:00.598
01:33:53.128 : en:01:33:53.128




Click Image To View Full Size


Click To View Screenshot
Click To View Screenshot
Click To View Screenshot

Files:

Jungle.Emperor.Leo.1997.1080p.BluRay.x264-W4F[PRiME]
  • Jungle.Emperor.Leo.1997.1080p.BluRay.x264-W4F[PRiME].mkv (5.5 GB)
  • Please Support!! Read More!!!.txt (0.2 KB)
  • Torrent Downloaded From taylor-warren.com.txt (0.1 KB)
  • Torrent Downloaded From ExtraTorrent.cc.txt (0.4 KB)

There are currently no comments. Feel free to leave one :)

Code:

  • udp://tracker.ilibr.org:6969/announce
  • udp://tracker.coppersurfer.tk:6969
  • udp://tracker.ilibr.org:80/announce
  • udp://tracker.coppersurfer.tk:6969/announce
  • udp://tracker.leechers-paradise.org:6969/announce
  • udp://tracker.opentrackr.org:1337/announce
  • udp://tracker.zer0day.to:1337/announce
  • udp://ipv4.tracker.harry.lu:80/announce
  • udp://p4p.arenabg.ch:1337/announce
  • udp://p4p.arenabg.com:1337/announce
  • udp://9.rarbg.com:2710/announce
  • udp://9.rarbg.to:2710/announce
  • udp://9.rarbg.me:2710/announce
  • udp://explodie.org:6969/announce
  • udp://eddie4.nl:6969/announce