The.Shack.2017.HDCAM.x264-iMLEAVING[PRiME]

  • Category Movies
  • Type Divx/Xvid
  • Language English
  • Total size 716.9 MB
  • Uploaded By showstopper
  • Downloads 175
  • Last checked 6 hours ago
  • Date uploaded 1 week ago
  • Seeders 38
  • Leechers 3

The Shack

DramaFantasy

After suffering a family tragedy, Mack Phillips spirals into a deep depression causing him to question his innermost beliefs. Facing a crisis of faith, he receives a mysterious letter urging him to an abandoned shack deep in the Oregon wilderness. Despite his doubts, Mack journeys to the shack and encounters an enigmatic trio of strangers led by a woman named Papa. Through this meeting, Mack finds important truths that will transform his understanding of his tragedy and change his life forever.

Infohash : 982998D11BA65D36B4600224C920B801F0073A40


The.Shack.2017.HDCAM.x264-iMLEAVING[PRiME]

ImDb: http://www.imdb.com/title/tt2872518



Complete name : The.Shack.2017.HDCAM.x264-iMLEAVING[PRiME].mp4
Format : MPEG-4
Format profile : Base Media
Codec ID : isom (isom/iso2/avc1/mp41)
File size : 703 MiB
Duration : 2 h 6 min
Overall bit rate : 776 kb/s
Encoded date : UTC 1904-01-01 00:00:00
Tagged date : UTC 1904-01-01 00:00:00
Writing application : Lavf56.32.100

Video
ID : 1
Format : AVC
Format/Info : Advanced Video Codec
Format profile : [email protected]
Format settings, CABAC : Yes
Format settings, ReFrames : 8 frames
Codec ID : avc1
Codec ID/Info : Advanced Video Coding
Duration : 2 h 6 min
Bit rate : 673 kb/s
Width : 720 pixels
Height : 304 pixels
Display aspect ratio : 2.35:1
Frame rate mode : Variable
Frame rate : 23.976 (24000/1001) FPS
Minimum frame rate : 23.564 FPS
Maximum frame rate : 24.390 FPS
Color space : YUV
Chroma subsampling : 4:2:0
Bit depth : 8 bits
Scan type : Progressive
Bits/(Pixel*Frame) : 0.128
Stream size : 609 MiB (87%)
Writing library : x264 core 148 r2705 3f5ed56
Encoding settings : cabac=1 / ref=8 / deblock=1:0:0 / analyse=0x3:0x113 / me=umh / subme=9 / psy=1 / psy_rd=1.00:0.00 / mixed_ref=1 / me_range=24 / chroma_me=1 / trellis=1 / 8x8dct=1 / cqm=0 / deadzone=21,11 / fast_pskip=1 / chroma_qp_offset=-2 / threads=6 / lookahead_threads=1 / sliced_threads=0 / nr=0 / decimate=1 / interlaced=0 / bluray_compat=0 / constrained_intra=0 / bframes=5 / b_pyramid=2 / b_adapt=2 / b_bias=0 / direct=3 / weightb=1 / open_gop=0 / weightp=2 / keyint=240 / keyint_min=23 / scenecut=40 / intra_refresh=0 / rc_lookahead=60 / rc=2pass / mbtree=1 / bitrate=673 / ratetol=1.0 / qcomp=0.60 / qpmin=0 / qpmax=69 / qpstep=4 / cplxblur=20.0 / qblur=0.5 / ip_ratio=1.40 / aq=2:1.00
Encoded date : UTC 1904-01-01 00:00:00
Tagged date : UTC 1904-01-01 00:00:00

Audio
ID : 2
Format : AAC
Format/Info : Advanced Audio Codec
Format profile : LC
Codec ID : 40
Duration : 2 h 6 min
Bit rate mode : Constant
Bit rate : 96.0 kb/s
Channel(s) : 2 channels
Channel positions : Front: L R
Sampling rate : 48.0 kHz
Frame rate : 46.875 FPS (1024 spf)
Compression mode : Lossy
Stream size : 86.9 MiB (12%)
Default : Yes
Alternate group : 1
Encoded date : UTC 1904-01-01 00:00:00
Tagged date : UTC 1904-01-01 00:00:00




Click Image To View Full Size


Click To View Screenshot
Click To View Screenshot
Click To View Screenshot

Files:

The.Shack.2017.HDCAM.x264-iMLEAVING[PRiME]
  • Please Support!! Read More!!!.txt (0.2 KB)
  • Sample
    • Sample[PRiME].mp4 (13.8 MB)
  • The.Shack.2017.HDCAM.x264-iMLEAVING[PRiME].mp4 (703.1 MB)
  • Torrent Downloaded From taylor-warren.com.txt (0.1 KB)
  • Torrent Downloaded From ExtraTorrent.cc.txt (0.4 KB)

There are currently no comments. Feel free to leave one :)

Code:

  • udp://tracker.ilibr.org:6969/announce
  • udp://tracker.coppersurfer.tk:6969
  • udp://tracker.ilibr.org:80/announce
  • udp://tracker.coppersurfer.tk:6969/announce
  • udp://tracker.leechers-paradise.org:6969/announce
  • udp://tracker.opentrackr.org:1337/announce
  • udp://tracker.zer0day.to:1337/announce
  • udp://ipv4.tracker.harry.lu:80/announce
  • udp://p4p.arenabg.ch:1337/announce
  • udp://p4p.arenabg.com:1337/announce
  • udp://9.rarbg.com:2710/announce
  • udp://9.rarbg.to:2710/announce
  • udp://9.rarbg.me:2710/announce
  • udp://explodie.org:6969/announce
  • udp://eddie4.nl:6969/announce