Logan 2017 1080p ENG CAM CHN-SUBS

  • Category Movies
  • Type Divx/Xvid
  • Language English
  • Total size 1.2 GB
  • Uploaded By mazemaze16
  • Downloads 28097
  • Last checked 1 week ago
  • Date uploaded 2 weeks ago
  • Seeders 2388
  • Leechers 493

Logan

ActionDramaScience Fiction

In the near future, a weary Logan cares for an ailing Professor X in a hide out on the Mexican border. But Logan's attempts to hide from the world and his legacy are up-ended when a young mutant arrives, being pursued by dark forces.

Infohash : 8743EB81F0BDCA7DFC363B352468C51866D114EB

Logan 2017 1080p ENG CAM CHN-SUBS



Format : MPEG-4
Codec ID : M4V
File size : 1.21 GiB
Duration : 1h 50mn
Overall bit rate mode : Variable
Overall bit rate : 1 579 Kbps
Encoded date : UTC 2017-03-06 06:05:40
Tagged date : UTC 2017-03-06 06:05:40

Language : English

Video
ID : 1
Format : AVC
Format/Info : Advanced Video Codec
Format profile : [email protected]
Format settings, CABAC : Yes
Format settings, ReFrames : 4 frames
Codec ID : avc1
Codec ID/Info : Advanced Video Coding
Duration : 1h 50mn
Bit rate : 1 500 Kbps
Maximum bit rate : 3 777 Kbps
Width : 1 920 pixels
Height : 1 080 pixels
Display aspect ratio : 16:9
Frame rate mode : Constant
Frame rate : 29.970 fps
Color space : YUV
Chroma subsampling : 4:2:0
Bit depth : 8 bits
Scan type : Progressive
Bits/(Pixel*Frame) : 0.024
Stream size : 1.15 GiB (95%)
Writing library : x264 core 148 r2665kMod
Encoded date : UTC 2017-03-06 06:05:40
Tagged date : UTC 2017-03-06 06:06:02

Audio
ID : 2
Format : AAC
Format/Info : Advanced Audio Codec
Format profile : LC
Codec ID : 40
Duration : 1h 50mn
Bit rate mode : Variable
Bit rate : 73.9 Kbps
Maximum bit rate : 93.6 Kbps
Channel(s) : 2 channels
Channel positions : Front: L R
Sampling rate : 48.0 KHz
Compression mode : Lossy
Stream size : 58.2 MiB (5%)
Encoded date : UTC 2017-03-06 04:56:03
Tagged date : UTC 2017-03-06 06:06:02

Screens:



Note:

Chinese CAM for those who are eager to view the movie at earliest.

Files:

  • Logan 2017 1080p. CAM CHN-SUBS.mp4 (1.2 GB)

Comments

Code:

  • udp://tracker.ilibr.org:6969/announce
  • udp://9.rarbg.com:2710/announce
  • udp://9.rarbg.to:2710/announce
  • udp://tracker.leechers-paradise.org:6969/announce
  • udp://eddie4.nl:6969/announce
  • udp://ipv4.tracker.harry.lu:80/announce
  • udp://explodie.org:6969/announce
  • udp://p4p.arenabg.com:1337/announce
  • udp://p4p.arenabg.ch:1337/announce
  • udp://tracker.zer0day.to:1337/announce
  • udp://tracker.opentrackr.org:1337/announce
  • udp://tracker.ilibr.org:80/announce
  • udp://tracker.coppersurfer.tk:6969/announce
  • udp://tracker.coppersurfer.tk:6969
  • udp://9.rarbg.me:2710/announce