Doctor.Strange.2016.3D.1080p.BluRay.x264-SPRiNTER[PRiME]

  • Category Movies
  • Type Divx/Xvid
  • Language English
  • Total size 8.8 GB
  • Uploaded By showstopper
  • Downloads 414
  • Last checked 2 days ago
  • Date uploaded 6 days ago
  • Seeders 52
  • Leechers 41

Doctor Strange

ActionAdventureFantasyScience Fiction

After his career is destroyed, a brilliant but arrogant surgeon gets a new lease on life when a sorcerer takes him under his wing and trains him to defend the world against evil.

Infohash : E12919EE50F54169B8952FE896AA0314EA7DEE43


Doctor.Strange.2016.3D.1080p.BluRay.x264-SPRiNTER[PRiME]

ImDb: http://www.imdb.com/title/tt1211837



Complete name : Doctor.Strange.2016.3D.1080p.BluRay.x264-SPRiNTER[PRiME].mkv
Format : Matroska
Format version : Version 4 / Version 2
File size : 8.75 GiB
Duration : 1 h 54 min
Overall bit rate : 10.9 Mb/s
Encoded date : UTC 2017-02-16 20:57:47
Writing application : mkvmerge v8.3.0 ('Over the Horizon') 64bit
Writing library : libebml v1.3.1 + libmatroska v1.4.2

Video
ID : 1
Format : AVC
Format/Info : Advanced Video Codec
Format profile : [email protected]
Format settings, CABAC : Yes
Format settings, ReFrames : 4 frames
Codec ID : V_MPEG4/ISO/AVC
Duration : 1 h 54 min
Bit rate : 9 385 kb/s
Width : 1 920 pixels
Height : 1 016 pixels
Display aspect ratio : 1.890
Frame rate mode : Constant
Frame rate : 23.976 FPS
Color space : YUV
Chroma subsampling : 4:2:0
Bit depth : 8 bits
Scan type : Progressive
Bits/(Pixel*Frame) : 0.201
Stream size : 7.53 GiB (86%)
Writing library : x264 core 148 r2744 b97ae06
Encoding settings : cabac=1 / ref=4 / deblock=1:0:0 / analyse=0x3:0x133 / me=umh / subme=7 / psy=1 / psy_rd=1.00:0.00 / mixed_ref=1 / me_range=16 / chroma_me=1 / trellis=1 / 8x8dct=1 / cqm=0 / deadzone=21,11 / fast_pskip=0 / chroma_qp_offset=-2 / threads=24 / lookahead_threads=4 / sliced_threads=0 / nr=0 / decimate=1 / interlaced=0 / bluray_compat=0 / constrained_intra=0 / bframes=3 / b_pyramid=2 / b_adapt=1 / b_bias=0 / direct=1 / weightb=1 / open_gop=0 / weightp=2 / keyint=250 / keyint_min=23 / scenecut=40 / intra_refresh=0 / rc_lookahead=40 / rc=2pass / mbtree=1 / bitrate=9385 / ratetol=1.0 / qcomp=0.60 / qpmin=0 / qpmax=69 / qpstep=4 / cplxblur=20.0 / qblur=0.5 / ip_ratio=1.40 / aq=1:1.00
Language : English
Default : Yes
Forced : No

Audio
ID : 2
Format : DTS
Format/Info : Digital Theater Systems
Mode : 16
Format settings, Endianness : Big
Codec ID : A_DTS
Duration : 1 h 54 min
Bit rate mode : Constant
Bit rate : 1 509 kb/s
Channel(s) : 6 channels
Channel positions : Front: L C R, Side: L R, LFE
Sampling rate : 48.0 kHz
Frame rate : 93.750 FPS (512 spf)
Bit depth : 24 bits
Compression mode : Lossy
Stream size : 1.21 GiB (14%)
Language : English
Default : Yes
Forced : No

Menu
00:00:00.000 : en:00:00:00.000
00:04:34.566 : en:00:04:34.566
00:10:16.825 : en:00:10:16.825
00:18:32.153 : en:00:18:32.153
00:24:37.017 : en:00:24:37.017
00:31:40.482 : en:00:31:40.482
00:38:33.811 : en:00:38:33.811
00:43:16.135 : en:00:43:16.135
00:48:24.527 : en:00:48:24.527
00:55:34.498 : en:00:55:34.498
01:05:04.359 : en:01:05:04.359
01:12:38.437 : en:01:12:38.437
01:22:14.346 : en:01:22:14.346
01:28:28.637 : en:01:28:28.637
01:35:00.904 : en:01:35:00.904
01:45:06.509 : en:01:45:06.509




Click Image To View Full Size


Click To View Screenshot
Click To View Screenshot
Click To View Screenshot

Files:

Doctor.Strange.2016.3D.1080p.BluRay.x264-SPRiNTER[PRiME]
  • Doctor.Strange.2016.3D.1080p.BluRay.x264-SPRiNTER[PRiME].mkv (8.7 GB)
  • Please Support!! Read More!!!.txt (0.2 KB)
  • Sample
    • doctor.strange.2016.3d.1080p.bluray.x264-sprinter.sample[PRiME].mkv (59.2 MB)
  • Torrent Downloaded From taylor-warren.com.txt (0.1 KB)
  • Torrent Downloaded From ExtraTorrent.cc.txt (0.4 KB)
  • doctor.strange.2016.3d.1080p.bluray.x264-sprinter.jpg (6.0 KB)

There are currently no comments. Feel free to leave one :)

Code:

  • udp://tracker.ilibr.org:6969/announce
  • udp://tracker.coppersurfer.tk:6969
  • udp://tracker.ilibr.org:80/announce
  • udp://tracker.coppersurfer.tk:6969/announce
  • udp://tracker.leechers-paradise.org:6969/announce
  • udp://tracker.opentrackr.org:1337/announce
  • udp://tracker.zer0day.to:1337/announce
  • udp://ipv4.tracker.harry.lu:80/announce
  • udp://p4p.arenabg.ch:1337/announce
  • udp://p4p.arenabg.com:1337/announce
  • udp://9.rarbg.com:2710/announce
  • udp://9.rarbg.to:2710/announce
  • udp://9.rarbg.me:2710/announce
  • udp://explodie.org:6969/announce
  • udp://eddie4.nl:6969/announce