Moana.2016.1080p.BluRay.x264-SPARKS[PRiME]

  • Category Movies
  • Type Divx/Xvid
  • Language English
  • Total size 5.6 GB
  • Uploaded By showstopper
  • Downloads 159
  • Last checked 1 day ago
  • Date uploaded 1 week ago
  • Seeders 45
  • Leechers 48

Moana

MusicAnimationAdventureComedyFamilyFantasy

In Ancient Polynesia, when a terrible curse incurred by Maui reaches an impetuous Chieftain's daughter's island, she answers the Ocean's call to seek out the demigod to set things right.

Infohash : 39A30374303FC333C8C72BE63CF27918C216302D


Moana.2016.1080p.BluRay.x264-SPARKS[PRiME]

ImDb: http://www.imdb.com/title/tt3521164



Complete name : Moana.2016.1080p.BluRay.x264-SPARKS[PRiME].mkv
Format : Matroska
Format version : Version 4 / Version 2
File size : 5.47 GiB
Duration : 1 h 47 min
Overall bit rate : 7 298 kb/s
Encoded date : UTC 2017-02-16 23:18:55
Writing application : mkvmerge v8.3.0 ('Over the Horizon') 64bit
Writing library : libebml v1.3.1 + libmatroska v1.4.2

Video
ID : 1
Format : AVC
Format/Info : Advanced Video Codec
Format profile : [email protected]
Format settings, CABAC : Yes
Format settings, ReFrames : 5 frames
Codec ID : V_MPEG4/ISO/AVC
Duration : 1 h 47 min
Bit rate : 5 787 kb/s
Width : 1 920 pixels
Height : 808 pixels
Display aspect ratio : 2.40:1
Frame rate mode : Constant
Frame rate : 23.976 FPS
Color space : YUV
Chroma subsampling : 4:2:0
Bit depth : 8 bits
Scan type : Progressive
Bits/(Pixel*Frame) : 0.156
Stream size : 4.33 GiB (79%)
Writing library : x264 core 148 r2744 b97ae06
Encoding settings : cabac=1 / ref=5 / deblock=1:0:0 / analyse=0x3:0x133 / me=umh / subme=7 / psy=1 / psy_rd=1.00:0.00 / mixed_ref=1 / me_range=16 / chroma_me=1 / trellis=1 / 8x8dct=1 / cqm=0 / deadzone=21,11 / fast_pskip=0 / chroma_qp_offset=-2 / threads=18 / lookahead_threads=3 / sliced_threads=0 / nr=0 / decimate=1 / interlaced=0 / bluray_compat=0 / constrained_intra=0 / bframes=3 / b_pyramid=2 / b_adapt=1 / b_bias=0 / direct=1 / weightb=1 / open_gop=0 / weightp=2 / keyint=250 / keyint_min=23 / scenecut=40 / intra_refresh=0 / rc_lookahead=40 / rc=2pass / mbtree=1 / bitrate=5787 / ratetol=1.0 / qcomp=0.60 / qpmin=0 / qpmax=69 / qpstep=4 / cplxblur=20.0 / qblur=0.5 / ip_ratio=1.40 / aq=1:1.00
Language : English
Default : Yes
Forced : No

Audio
ID : 2
Format : DTS
Format/Info : Digital Theater Systems
Mode : 16
Format settings, Endianness : Big
Codec ID : A_DTS
Duration : 1 h 47 min
Bit rate mode : Constant
Bit rate : 1 509 kb/s
Channel(s) : 6 channels
Channel positions : Front: L C R, Side: L R, LFE
Sampling rate : 48.0 kHz
Frame rate : 93.750 FPS (512 spf)
Bit depth : 24 bits
Compression mode : Lossy
Stream size : 1.13 GiB (21%)
Language : English
Default : Yes
Forced : No

Text #1
ID : 3
Format : UTF-8
Codec ID : S_TEXT/UTF8
Codec ID/Info : UTF-8 Plain Text
Duration : 1 h 45 min
Bit rate : 44 b/s
Count of elements : 1246
Stream size : 34.7 KiB (0%)
Title : English
Language : English
Default : No
Forced : No

Text #2
ID : 4
Format : UTF-8
Codec ID : S_TEXT/UTF8
Codec ID/Info : UTF-8 Plain Text
Duration : 1 h 45 min
Bit rate : 47 b/s
Count of elements : 1346
Stream size : 36.6 KiB (0%)
Title : English SDH
Language : English
Default : No
Forced : No

Menu
00:00:00.000 : en:00:00:00.000
00:07:15.685 : en:00:07:15.685
00:11:59.802 : en:00:11:59.802
00:16:13.764 : en:00:16:13.764
00:21:29.580 : en:00:21:29.580
00:28:02.806 : en:00:28:02.806
00:32:11.346 : en:00:32:11.346
00:35:16.281 : en:00:35:16.281
00:41:36.869 : en:00:41:36.869
00:45:04.869 : en:00:45:04.869
00:49:10.322 : en:00:49:10.322
00:53:21.031 : en:00:53:21.031
00:57:33.325 : en:00:57:33.325
01:05:45.024 : en:01:05:45.024
01:10:46.075 : en:01:10:46.075
01:12:52.118 : en:01:12:52.118
01:15:41.954 : en:01:15:41.954
01:23:17.075 : en:01:23:17.075
01:29:50.927 : en:01:29:50.927
01:36:13.726 : en:01:36:13.726




Click Image To View Full Size


Click To View Screenshot
Click To View Screenshot
Click To View Screenshot

Files:

Moana.2016.1080p.BluRay.x264-SPARKS[PRiME]
  • Moana.2016.1080p.BluRay.x264-SPARKS[PRiME].mkv (5.5 GB)
  • Please Support!! Read More!!!.txt (0.2 KB)
  • Sample
    • moana.2016.1080p.bluray.x264-sparks.sample[PRiME].mkv (45.6 MB)
    Subs
    • Moana.2016.1080p.BluRay.x264-SPARKS.idx (331.9 KB)
    • Moana.2016.1080p.BluRay.x264-SPARKS.sub (55.1 MB)
  • Torrent Downloaded From taylor-warren.com.txt (0.1 KB)
  • Torrent Downloaded From ExtraTorrent.cc.txt (0.4 KB)
  • moana.2016.1080p.bluray.x264-sparks.jpg (6.2 KB)

There are currently no comments. Feel free to leave one :)

Code:

  • udp://tracker.ilibr.org:6969/announce
  • udp://tracker.coppersurfer.tk:6969
  • udp://tracker.ilibr.org:80/announce
  • udp://tracker.coppersurfer.tk:6969/announce
  • udp://tracker.leechers-paradise.org:6969/announce
  • udp://tracker.opentrackr.org:1337/announce
  • udp://tracker.zer0day.to:1337/announce
  • udp://ipv4.tracker.harry.lu:80/announce
  • udp://p4p.arenabg.ch:1337/announce
  • udp://p4p.arenabg.com:1337/announce
  • udp://9.rarbg.com:2710/announce
  • udp://9.rarbg.to:2710/announce
  • udp://9.rarbg.me:2710/announce
  • udp://explodie.org:6969/announce
  • udp://eddie4.nl:6969/announce