John.Wick.2014.BluRay.720p.x264-HEFF.mp4

  • Category Movies
  • Type HD
  • Language English
  • Total size 1.4 GB
  • Uploaded By pheonix83
  • Downloads 4030
  • Last checked 16 hours ago
  • Date uploaded 1 month ago
  • Seeders 188
  • Leechers 17

John Wick

ActionThriller

An ex-hitman comes out of retirement to track down the gangsters that took everything from him.

Infohash : ED3D40B55D9FB3A1144B713F400EE5579E97AC3C



General
Complete name : John.Wick.2014.BluRay.720p.x264-HEFF.mp4
Format : MPEG-4
Format profile : Base Media / Version 2
Codec ID : mp42 (isom/iso2/avc1/mp41)
File size : 1.37 GiB
Duration : 1h 41mn
Overall bit rate : 1 938 Kbps

Video
ID : 1
Format : AVC
Format/Info : Advanced Video Codec
Format profile : [email protected]
Format settings, CABAC : Yes
Format settings, ReFrames : 4 frames
Codec ID : avc1
Codec ID/Info : Advanced Video Coding
Duration : 1h 41mn
Bit rate : 1 800 Kbps
Width : 1 280 pixels
Height : 534 pixels
Display aspect ratio : 2.40:1
Frame rate mode : Variable
Frame rate : 23.976 (24000/1001) fps
Chroma subsampling : 4:2:0
Bit depth : 8 bits
Scan type : Progressive
Bits/(Pixel*Frame) : 0.110
Stream size : 1.27 GiB (93%)
Writing library : x264 core 148 r2643 5c65704

Audio
ID : 2
Format : AAC
Format/Info : Advanced Audio Codec
Format profile : LC
Codec ID : 40
Duration : 1h 41mn
Bit rate mode : Constant
Bit rate : 132 Kbps
Channel(s) : 2 channels
Channel positions : Front: L R
Sampling rate : 48.0 KHz
Frame rate : 46.875 fps (1024 spf)
Compression mode : Lossy
Stream size : 95.9 MiB (7%)
Title : Stereo / Stereo

Files:

John.Wick.2014.BluRay.720p.x264-HEFF
  • hefftorrents.com.jpg (83.3 KB)
  • John.Wick.2014.BluRay.720p.x264-HEFF.mp4 (1.4 GB)

There are currently no comments. Feel free to leave one :)

Code:

  • udp://tracker.opentrackr.org:1337/announce
  • udp://tracker.coppersurfer.tk:6969/announce
  • udp://tracker.leechers-paradise.org:6969/announce
  • udp://zer0day.ch:1337/announce
  • udp://explodie.org:6969/announce